<?xml version="1.0" standalone="no"?>
<!DOCTYPE svg PUBLIC "-//W3C//DTD SVG 1.1//EN" "http://www.w3.org/Graphics/SVG/1.1/DTD/svg11.dtd" >
<svg xmlns="http://www.w3.org/2000/svg">
<metadata></metadata>
<defs>
<font id="zineslabdis-xboldromanregular" horiz-adv-x="1136" >
<font-face units-per-em="2048" ascent="1597" descent="-451" />
<missing-glyph horiz-adv-x="491" />
<glyph unicode="&#xfb01;" d="M20 0v244h113v475h-113v244h113v159q0 158 82.5 242t239.5 84q102 0 200 -37v-272q-4 1 -29.5 8t-46.5 10.5t-40 3.5q-72 0 -72 -98v-100h534v-641q0 -62 48 -62q39 0 67 12v-256q-93 -36 -209 -36q-239 0 -239 260v479h-201v-475h113v-244h-560zM707 1128v283h294v-283 h-294z" />
<glyph unicode="&#xfb02;" d="M20 0v244h113v475h-113v244h113v159q0 158 82.5 242t239.5 84q94 0 184 -31v-274q-5 1 -26 6.5t-38 8.5t-36 3q-72 0 -72 -98v-100h113v-244h-113v-475h113v-244h-560zM668 240v1187h333v-1105q0 -62 48 -62q39 0 67 12v-256q-93 -36 -209 -36q-239 0 -239 260z" />
<glyph horiz-adv-x="0" />
<glyph horiz-adv-x="0" />
<glyph horiz-adv-x="682" />
<glyph unicode="&#xd;" horiz-adv-x="491" />
<glyph unicode=" "  horiz-adv-x="491" />
<glyph unicode="&#x09;" horiz-adv-x="491" />
<glyph unicode="&#xa0;" horiz-adv-x="491" />
<glyph unicode="!" horiz-adv-x="573" d="M104 0v346h365v-346h-365zM104 831v535h365v-535l-20 -368h-324z" />
<glyph unicode="&#x22;" horiz-adv-x="960" d="M84 854v451h344v-451h-344zM532 854v451h345v-451h-345z" />
<glyph unicode="#" horiz-adv-x="1247" d="M84 262v305h123v232h-123v305h123v262h344v-262h143v262h344v-262h125v-305h-125v-232h125v-305h-125v-262h-344v262h-143v-262h-344v262h-123zM551 567h143v232h-143v-232z" />
<glyph unicode="$" horiz-adv-x="1036" d="M51 926q0 165 94.5 264.5t262.5 126.5v225h251v-227q163 -17 310 -80v-336h-244v131q-113 25 -172 25q-75 0 -112.5 -24.5t-37.5 -78.5q0 -25 9.5 -43t35 -33t40.5 -21t55 -21l123 -46q53 -19 92.5 -38t84.5 -52.5t74 -74t48.5 -102t19.5 -136.5q0 -187 -88 -280.5 t-258 -116.5v-226h-252v226q-153 7 -321 75v351h243v-133q91 -27 172 -27q78 0 115 23t37 83q0 53 -38 82.5t-110 53.5l-118 41q-50 17 -88 35t-83.5 50t-75 71.5t-49.5 99.5t-20 133z" />
<glyph unicode="%" horiz-adv-x="2070" d="M47 926q0 107 33 186.5t90.5 124.5t127 66.5t151.5 21.5t151.5 -21.5t127.5 -66.5t91 -124.5t33 -186.5q0 -86 -22 -155t-59.5 -114.5t-89.5 -76t-109.5 -43.5t-122.5 -13q-82 0 -151.5 22t-127 67.5t-90.5 125.5t-33 187zM381 926q0 -103 15 -143t53 -40t52.5 40 t14.5 143t-14.5 141.5t-52.5 38.5t-53 -39t-15 -141zM590 35l575 1304l314 -69l-576 -1305zM1219 379q0 107 32.5 186.5t90 125t127 67.5t151.5 22t152 -22t127.5 -67.5t90.5 -125t33 -186.5t-33 -186.5t-91 -124.5t-127.5 -66.5t-151.5 -21.5q-65 0 -122 13t-109 43t-89 75 t-59 113.5t-22 154.5zM1552 379q0 -102 15 -141t53 -39t53 39t15 141q0 103 -15 142.5t-53 39.5t-53 -39.5t-15 -142.5z" />
<glyph unicode="&#x26;" horiz-adv-x="1325" d="M61 330q0 250 250 362q-157 105 -157 283q0 171 113 260.5t327 89.5q196 0 309 -87.5t113 -250.5q0 -64 -18.5 -115.5t-43.5 -82.5t-66 -56.5t-69.5 -37t-70.5 -25.5l155 -172q37 73 37 207h324q0 -303 -140 -463l138 -156l-273 -158l-137 154q-63 -47 -145 -74.5 t-224 -27.5q-66 0 -124 10t-114 35t-95.5 63.5t-64 100.5t-24.5 141zM416 356q0 -57 32.5 -88.5t88.5 -31.5q70 0 137 53l-185 207q-73 -45 -73 -140zM487 971q0 -77 101 -135q94 41 94 141q0 45 -23.5 72.5t-70.5 27.5q-101 0 -101 -106z" />
<glyph unicode="'" horiz-adv-x="512" d="M84 854v451h344v-451h-344z" />
<glyph unicode="(" horiz-adv-x="598" d="M61 678q0 467 326 850l231 -92q-34 -63 -64.5 -135t-61 -169.5t-48.5 -216t-18 -239.5q0 -229 57.5 -422.5t134.5 -333.5l-231 -92q-326 383 -326 850z" />
<glyph unicode=")" horiz-adv-x="595" d="M-20 -80q77 139 133.5 332.5t56.5 423.5t-56.5 424.5t-133.5 335.5l229 92q326 -383 326 -850t-326 -850z" />
<glyph unicode="*" horiz-adv-x="815" d="M53 936l144 82l-144 82l107 182l143 -82v166h209v-166l143 82l107 -182l-144 -82l144 -82l-107 -182l-143 82v-164h-209v164l-143 -82z" />
<glyph unicode="+" horiz-adv-x="901" d="M61 516v246h265v274h252v-274h262v-246h-262v-276h-252v276h-265z" />
<glyph unicode="," horiz-adv-x="524" d="M94 0v326h336v-306l-82 -348l-223 39l59 289h-90z" />
<glyph unicode="-" horiz-adv-x="567" d="M61 446v265h445v-265h-445z" />
<glyph unicode="." horiz-adv-x="524" d="M94 0v326h336v-326h-336z" />
<glyph unicode="/" horiz-adv-x="724" d="M16 20l365 1381l328 -55l-363 -1381z" />
<glyph unicode="0" horiz-adv-x="1150" d="M68 653q0 672 507 672q508 0 508 -672q0 -673 -508 -673q-507 0 -507 673zM422 653q0 -236 34 -325.5t119 -89.5q57 0 89.5 36.5t48.5 127t16 251.5q0 165 -14.5 254t-47 126.5t-92.5 37.5q-85 0 -119 -91.5t-34 -326.5z" />
<glyph unicode="1" horiz-adv-x="694" d="M20 1159l283 146h236v-1061h125v-244h-615v244h146v717l-150 -25z" />
<glyph unicode="2" horiz-adv-x="1015" d="M68 0q0 136 18.5 237.5t57 173.5t82 119.5t108.5 96.5l112 84q31 23 43 32t36 31.5t34 40t19.5 46t9.5 59.5q0 67 -38 101t-108 34q-58 0 -131 -19v-133h-243v332q60 24 101 39t134 33t186 18q211 0 332 -97.5t121 -297.5q0 -56 -9.5 -105t-29.5 -89.5t-39.5 -70.5 t-52 -61t-54 -49t-57.5 -45l-92 -70q-6 -4 -29 -21t-32 -24.5t-27.5 -24t-27 -29t-17.5 -30.5t-12 -37h242v119h243v-393h-880z" />
<glyph unicode="3" horiz-adv-x="1003" d="M68 57v336h243v-137q54 -12 113 -12q158 0 158 147q0 81 -47 115.5t-136 34.5h-129v262h129q78 0 120 30.5t42 102.5q0 123 -133 123q-67 0 -117 -15v-131h-243v330q195 82 415 82q92 0 166.5 -17.5t136 -55t95.5 -104.5t34 -159q0 -59 -14 -107t-34.5 -78.5t-52 -55 t-57.5 -37.5t-61 -25q50 -16 88 -36.5t75 -56.5t57 -93.5t20 -134.5q0 -83 -24 -149t-66 -110t-101.5 -72.5t-126.5 -41t-145 -12.5q-207 0 -405 77z" />
<glyph unicode="4" horiz-adv-x="1081" d="M41 207v272l512 826h365v-826h133v-272h-133v-207h-345v207h-532zM291 479h282v465z" />
<glyph unicode="5" horiz-adv-x="1013" d="M104 51v332h244v-129q38 -10 101 -10q143 0 143 162q0 86 -28.5 124.5t-88.5 38.5q-76 0 -139 -80l-230 43l21 773h811v-392h-244v117h-227l-14 -223q61 27 125 27q71 0 131.5 -19.5t116 -65.5t88 -135t32.5 -213q0 -94 -24 -167t-65 -120.5t-100 -78t-124.5 -43 t-143.5 -12.5q-204 0 -385 71z" />
<glyph unicode="6" horiz-adv-x="1114" d="M68 565q0 198 40 346t113.5 237.5t171 133t219.5 43.5q193 0 338 -68v-333h-245v131q-24 6 -80 6q-81 0 -134.5 -76t-60.5 -209q45 36 96 56t127 20q57 0 109 -11.5t105.5 -42.5t92 -78t63 -124t24.5 -176q0 -97 -24.5 -172.5t-68 -125.5t-106 -82t-133.5 -46t-156 -14 q-113 0 -200 30.5t-154 97.5t-102 182t-35 275zM422 500q0 -143 34.5 -202.5t104.5 -59.5q67 0 99 40.5t32 133.5q0 94 -29.5 137t-93.5 43q-77 0 -147 -53v-39z" />
<glyph unicode="7" horiz-adv-x="905" d="M31 913v392h843v-275l-319 -1030h-354l334 1030h-261v-117h-243z" />
<glyph unicode="8" horiz-adv-x="1138" d="M68 348q0 242 225 324q-44 22 -74.5 43.5t-63.5 58t-50 90t-17 123.5q0 170 125.5 254t359.5 84q229 0 352.5 -83.5t123.5 -254.5q0 -67 -17.5 -118.5t-50 -84.5t-67.5 -53t-80 -35q52 -17 91.5 -41.5t74 -62.5t53 -95.5t18.5 -131.5q0 -195 -120 -290t-380 -95 q-242 0 -372.5 91t-130.5 277zM422 377q0 -72 41.5 -109t109.5 -37q66 0 105 34.5t39 107.5q0 39 -12.5 68.5t-38.5 49.5t-51.5 32t-65.5 26q-62 -29 -94.5 -68.5t-32.5 -103.5zM442 971q0 -59 36.5 -91.5t107.5 -60.5q26 14 40 23.5t32.5 28t27 43t8.5 57.5q0 112 -123 112 q-62 0 -95.5 -29t-33.5 -83z" />
<glyph unicode="9" horiz-adv-x="1120" d="M68 883q0 114 36.5 200t102 138t152 78t192.5 26q248 0 375 -158t127 -503q0 -364 -125 -524t-379 -160q-188 0 -361 61v342h246v-127q36 -8 84 -8q79 0 127.5 65t48.5 203v19q-96 -60 -221 -60q-80 0 -149.5 21.5t-128.5 67t-93 127t-34 192.5zM422 895q0 -160 127 -160 q70 0 149 49q0 155 -34.5 219t-110.5 64q-131 0 -131 -172z" />
<glyph unicode=":" horiz-adv-x="524" d="M94 0v326h336v-326h-336zM94 637v326h336v-326h-336z" />
<glyph unicode=";" horiz-adv-x="524" d="M94 0v326h336v-306l-82 -348l-223 39l59 289h-90zM94 637v326h336v-326h-336z" />
<glyph unicode="&#x3c;" horiz-adv-x="897" d="M61 508v262l668 360l107 -268l-455 -219l455 -182l-107 -277z" />
<glyph unicode="=" horiz-adv-x="903" d="M61 344v244h781v-244h-781zM61 711v243h781v-243h-781z" />
<glyph unicode="&#x3e;" horiz-adv-x="897" d="M61 461l455 182l-455 219l107 268l668 -360v-262l-668 -324z" />
<glyph unicode="?" horiz-adv-x="954" d="M57 961v346q217 79 422 79q192 0 303 -86t111 -276q0 -97 -29.5 -160t-81.5 -119q-17 -18 -53.5 -52t-53.5 -52.5t-32.5 -51t-15.5 -67.5q0 -12 4 -59h-355l-4 41q-2 18 -2 51q0 60 13.5 108.5t41.5 88t48.5 61t58.5 55.5q4 4 22 20t22.5 20.5t17.5 18.5t17.5 22t11.5 21 t9.5 25.5t2.5 26.5q0 42 -27.5 67t-83.5 25q-67 0 -123 -18v-135h-244zM270 0v346h365v-346h-365z" />
<glyph unicode="@" horiz-adv-x="2052" d="M61 418q0 193 55 355t149.5 275.5t223 192.5t275 116.5t305.5 37.5q196 0 364 -52t292.5 -149t195 -244.5t70.5 -328.5q0 -148 -30.5 -262.5t-80 -184.5t-118 -115t-136.5 -62t-145 -17q-288 0 -297 245q-60 -124 -143.5 -184.5t-204.5 -60.5q-58 0 -109.5 20t-95.5 62 t-70 115.5t-26 170.5q0 179 67.5 318.5t179.5 213.5t246 74q53 0 95 -8t73.5 -25t46 -27t37.5 -30l238 29l-91 -518q-4 -18 -4 -49q0 -90 66 -90q61 0 106 89.5t45 274.5q0 122 -45 220t-123.5 161t-184 96t-228.5 33q-102 0 -196 -28t-174 -85t-139 -137.5t-92.5 -191.5 t-33.5 -240q0 -138 33 -242.5t93 -173.5t151.5 -112.5t200 -61.5t247.5 -18q75 0 158 6v-266q-143 -11 -224 -11q-236 0 -421 50.5t-321 154.5t-208 271.5t-72 392.5zM887 369q0 -61 13.5 -88t43.5 -27q50 0 102.5 82t83.5 256l17 92q-29 25 -76 25q-46 0 -89 -50t-69 -129 t-26 -161z" />
<glyph unicode="A" horiz-adv-x="1298" d="M20 0v244h105l242 878h-134v244h631l312 -1122h102v-244h-389l-76 293h-330l-69 -293h-394zM537 567h223l-113 471z" />
<glyph unicode="B" horiz-adv-x="1157" d="M20 0v244h113v878h-113v244h592q443 0 443 -350q0 -62 -14 -112t-34 -81t-51 -55t-55.5 -36t-56.5 -23q241 -52 241 -326q0 -91 -23 -158.5t-63 -110t-101 -68.5t-129 -36t-155 -10h-594zM477 248h66q101 0 144.5 35t43.5 131q0 93 -45.5 128.5t-140.5 35.5h-68v-330z M477 823h66q79 0 118 32.5t39 121.5q0 79 -37 110t-120 31h-66v-295z" />
<glyph unicode="C" horiz-adv-x="1144" d="M72 682q0 177 45.5 313.5t127.5 221t190 127t239 42.5q98 0 183.5 -16t126 -31t87.5 -37l12 -6v-327h-245v123q-81 18 -140 18q-120 0 -196 -106.5t-76 -321.5q0 -119 21.5 -204.5t59.5 -131t82.5 -66t98.5 -20.5q62 0 150 23v120h245v-327q-2 -1 -31 -14.5t-41 -18.5 t-45 -17.5t-60 -18t-66.5 -13.5t-85.5 -11t-97 -3q-79 0 -149 14.5t-137 46.5t-120.5 87t-94 130.5t-62.5 183.5t-22 240z" />
<glyph unicode="D" horiz-adv-x="1316" d="M20 0v244h113v878h-113v244h570q145 0 260.5 -36t206 -114t139.5 -213t49 -321q0 -152 -33 -269t-91.5 -194.5t-146 -127t-190 -70.5t-229.5 -21h-535zM477 274h72q180 0 261 94.5t81 313.5q0 118 -21 198.5t-64 126.5t-100 65.5t-137 19.5h-92v-818z" />
<glyph unicode="E" horiz-adv-x="1081" d="M20 0v244h113v878h-113v244h1010v-397h-244v123h-309v-261h414v-272h-414v-285h309v129h244v-403h-1010z" />
<glyph unicode="F" horiz-adv-x="1081" d="M20 0v244h113v878h-113v244h1010v-397h-244v123h-309v-279h424v-274h-424v-295h156v-244h-613z" />
<glyph unicode="G" horiz-adv-x="1323" d="M72 664q0 157 36.5 283t97 206.5t143.5 134t171 76t185 22.5q85 0 158 -9.5t134.5 -29.5t85 -29.5t68.5 -29.5v-319h-244v110q-97 31 -194 31q-58 0 -108.5 -25t-91 -75t-64 -134t-23.5 -194q0 -426 227 -426q104 0 193 51v221h-207v275h551v-803h-344v68 q-88 -88 -260 -88q-51 0 -99 8.5t-100 30t-97 55t-86 87.5t-69.5 123.5t-45.5 166.5t-17 213z" />
<glyph unicode="H" horiz-adv-x="1320" d="M20 0v244h113v878h-113v244h592v-244h-135v-291h365v291h-103v244h561v-244h-114v-878h114v-244h-591v244h133v305h-365v-305h105v-244h-562z" />
<glyph unicode="I" horiz-adv-x="612" d="M20 0v244h113v878h-113v244h572v-244h-115v-878h115v-244h-572z" />
<glyph unicode="J" horiz-adv-x="630" d="M10 -76q36 26 57.5 46.5t43.5 53t32.5 77t10.5 102.5v919h-134v244h478v-1173q0 -94 -21.5 -170t-53.5 -126.5t-82.5 -92.5t-95.5 -66t-106 -49z" />
<glyph unicode="K" horiz-adv-x="1230" d="M20 0v244h113v878h-113v244h572v-244h-115v-878h115v-244h-572zM489 727l363 639h358v-244h-125l-227 -387l248 -491h104v-244h-358z" />
<glyph unicode="L" horiz-adv-x="970" d="M20 0v244h113v878h-113v244h613v-244h-156v-827h209v127h244v-422h-910z" />
<glyph unicode="M" horiz-adv-x="1728" d="M20 0v244h113v878h-113v244h574l270 -768l271 768h573v-244h-115v-878h115v-244h-459v784l-260 -784h-252l-260 784v-784h-457z" />
<glyph unicode="N" horiz-adv-x="1361" d="M20 0v244h113v878h-113v244h480l383 -659v415h-115v244h573v-244h-114v-1122h-324l-426 737v-493h115v-244h-572z" />
<glyph unicode="O" horiz-adv-x="1380" d="M61 684q0 176 46.5 312t131.5 220.5t198.5 127t252.5 42.5q138 0 251.5 -43.5t198.5 -128.5t132 -220.5t47 -309.5q0 -175 -46.5 -310.5t-131.5 -221t-198.5 -129t-252.5 -43.5t-253 43.5t-198.5 129t-131 221t-46.5 310.5zM416 684q0 -226 72.5 -333t201.5 -107 t202 106.5t73 333.5q0 226 -72 335t-203 109q-130 0 -202 -109.5t-72 -334.5z" />
<glyph unicode="P" horiz-adv-x="1099" d="M20 0v244h113v878h-113v244h541q488 0 488 -424q0 -465 -488 -465h-84v-233h156v-244h-613zM477 735h53q41 0 68.5 7.5t50.5 27t34 58.5t11 98q0 102 -40.5 142t-125.5 40h-51v-373z" />
<glyph unicode="Q" horiz-adv-x="1380" d="M61 684q0 176 46.5 312t131.5 220.5t198.5 127t252.5 42.5q138 0 251.5 -43.5t198.5 -128.5t132 -220.5t47 -309.5q0 -295 -125 -469.5t-344 -220.5v-342h-320v344q-218 46 -343.5 220.5t-125.5 467.5zM416 684q0 -288 114 -395v233h320v-235q115 105 115 397 q0 226 -72 335t-203 109q-130 0 -202 -109.5t-72 -334.5z" />
<glyph unicode="R" horiz-adv-x="1150" d="M20 0v244h113v878h-113v244h541q488 0 488 -424q0 -286 -197 -389l170 -309h108v-244h-362l-248 489h-43v-489h-457zM477 735h53q41 0 68.5 7.5t50.5 27t34 58.5t11 98q0 101 -40 141.5t-124 40.5h-53v-373z" />
<glyph unicode="S" horiz-adv-x="1069" d="M57 971q0 198 132.5 306.5t359.5 108.5q86 0 159.5 -8.5t134 -27t84.5 -27t68 -27.5v-335h-243v129q-108 24 -179 24q-81 0 -122 -26t-41 -84q0 -30 12 -52t39 -38.5t51.5 -27t67.5 -24.5l92 -31q56 -18 98 -37t90 -54t79 -77.5t52 -108.5t21 -148q0 -116 -35 -199 t-101.5 -132.5t-154.5 -72t-203 -22.5q-227 0 -446 90v344h243v-129q101 -29 177 -29q81 0 124 27t43 92q0 62 -39 95t-118 58l-99 31q-34 11 -61.5 21t-65 28.5t-66 39.5t-58.5 53.5t-50 69.5t-32.5 89t-12.5 111z" />
<glyph unicode="T" horiz-adv-x="1159" d="M20 961v405h1119v-405h-244v120h-143v-837h153v-244h-651v244h154v837h-144v-120h-244z" />
<glyph unicode="U" horiz-adv-x="1308" d="M20 1122v244h572v-244h-115v-641q0 -107 47 -160t129 -53t129 51t47 160v643h-112v244h571v-244h-114v-653q0 -489 -521 -489q-116 0 -208 26t-163.5 82t-110 152.5t-38.5 228.5v653h-113z" />
<glyph unicode="V" horiz-adv-x="1267" d="M20 1122v244h545v-244h-94l166 -665l160 665h-95v244h545v-244h-102l-303 -1122h-416l-303 1122h-103z" />
<glyph unicode="W" horiz-adv-x="2054" d="M20 1122v244h568v-244h-105l140 -655l221 899h530v-244h-102l168 -655l180 899h414v-244h-103l-262 -1122h-436l-207 823l-207 -823h-434l-262 1122h-103z" />
<glyph unicode="X" horiz-adv-x="1179" d="M20 0v244h113l211 456l-211 422h-113v244h564v-244h-72l80 -174l188 418h379v-244h-112l-203 -395l215 -483h100v-244h-553v244h80l-88 231l-188 -475h-390z" />
<glyph unicode="Y" horiz-adv-x="1118" d="M20 1122v244h533v-244h-80l84 -268l172 512h369v-244h-103l-272 -661v-217h154v-244h-652v244h154v217l-256 661h-103z" />
<glyph unicode="Z" horiz-adv-x="1093" d="M31 0l516 1092h-246v-142h-244v416h1006l-518 -1092h248v148h243v-422h-1005z" />
<glyph unicode="[" horiz-adv-x="610" d="M104 -168v1698h527v-223h-182v-1252h182v-223h-527z" />
<glyph unicode="\" horiz-adv-x="724" d="M16 1346l330 55l363 -1381l-328 -55z" />
<glyph unicode="]" horiz-adv-x="610" d="M-20 55h182v1252h-182v223h526v-1698h-526v223z" />
<glyph unicode="^" horiz-adv-x="923" d="M43 774l248 592h342l248 -592h-303l-119 322l-113 -322h-303z" />
<glyph unicode="_" horiz-adv-x="874" d="M0 -217h874v-254h-874v254z" />
<glyph unicode="`" horiz-adv-x="567" d="M31 1427h364l142 -317h-334z" />
<glyph unicode="a" horiz-adv-x="1091" d="M51 270q0 322 430 322h144v26q0 48 -24 72.5t-81 24.5q-29 0 -58 -3.5t-55.5 -9t-33.5 -6.5v-73h-244v282q67 22 114.5 35.5t143 28t193.5 14.5q198 0 288 -88.5t90 -271.5v-301q0 -62 46 -62q39 0 67 12v-256q-93 -36 -207 -36q-156 0 -198 120q-120 -120 -306 -120 q-64 0 -118 16t-97.5 49t-68.5 90.5t-25 134.5zM395 311q0 -94 97 -94q59 0 133 51v150h-93q-137 0 -137 -107z" />
<glyph unicode="b" horiz-adv-x="1134" d="M20 1184v243h447v-524q32 23 54 36t75 28.5t115 15.5q72 0 132.5 -25.5t111 -80t79.5 -152t29 -229.5q0 -516 -361 -516q-146 0 -251 79l-35 -59h-283v1184h-113zM467 287q66 -41 133 -41q59 0 89 53t30 199q0 125 -33.5 169t-93.5 44q-55 0 -125 -52v-372z" />
<glyph unicode="c" horiz-adv-x="970" d="M72 471q0 115 27.5 204.5t73 146.5t108.5 94t129 52t141 15q191 0 358 -86v-322h-243v127q-49 7 -72 7q-81 0 -129.5 -58t-48.5 -174q0 -111 46 -167t120 -56q44 0 84 10v135h243v-325q-164 -94 -374 -94q-73 0 -138 15t-125.5 51.5t-104 91t-69.5 140t-26 193.5z" />
<glyph unicode="d" d="M72 485q0 94 16 171.5t44.5 130.5t64 92.5t79 61.5t86 32t87.5 10q59 0 107 -14t67.5 -26.5t44.5 -33.5v275h-113v243h446v-1105q0 -62 48 -62q39 0 67 12v-256q-93 -36 -205 -36q-159 0 -202 124q-98 -124 -283 -124q-59 0 -109 14.5t-96.5 51t-78.5 92.5t-51 144.5 t-19 202.5zM416 487q0 -73 9 -122t26.5 -74t37.5 -35t48 -10q13 0 25 1.5t23.5 6t19.5 7.5t19 10t15.5 10t15.5 11.5t13 10.5v367q-59 41 -117 41q-30 0 -52.5 -9.5t-42 -33t-30 -69t-10.5 -112.5z" />
<glyph unicode="e" horiz-adv-x="1044" d="M72 477q0 244 125 375t340 131q230 0 338 -148t108 -468h-565q7 -64 49.5 -96.5t114.5 -32.5q128 0 286 92l101 -211q-40 -28 -67.5 -44.5t-82.5 -42.5t-123.5 -39t-148.5 -13q-82 0 -151.5 16.5t-130 53.5t-103 94t-66.5 141.5t-24 191.5zM418 545h223q0 102 -23 155.5 t-83 53.5q-63 0 -87.5 -49t-29.5 -160z" />
<glyph unicode="f" horiz-adv-x="782" d="M20 0v244h113v475h-113v244h113v159q0 158 84.5 242t247.5 84q155 0 297 -64v-323h-205v108q-3 0 -13 1t-16 1q-61 0 -61 -88v-120h135v-244h-135v-475h135v-244h-582z" />
<glyph unicode="g" horiz-adv-x="1017" d="M41 -199q0 133 129 205q-86 55 -86 160q0 120 113 190q-59 38 -97.5 107.5t-38.5 167.5q0 179 114.5 265.5t322.5 86.5q51 0 112.5 -10t83.5 -10h303v-254h-94q31 -44 31 -105q0 -165 -113 -246.5t-323 -81.5q-65 0 -109 13q-12 -20 -12 -33q0 -26 18 -35t60 -12l200 -19 q75 -6 132 -23.5t107 -51t76.5 -91.5t26.5 -139q0 -336 -487 -336q-469 0 -469 252zM358 -141q0 -99 160 -99q152 0 152 90q0 40 -22.5 57.5t-76.5 22.5l-180 19q-33 -54 -33 -90zM393 631q0 -144 105 -144q50 0 76 32.5t26 111.5q0 74 -25 108.5t-77 34.5q-105 0 -105 -143 z" />
<glyph unicode="h" d="M20 0v244h113v940h-113v243h447v-571q28 26 44 39.5t53.5 38.5t82.5 37t98 12q120 0 188 -75t68 -220v-366q0 -62 48 -62q39 0 67 12v-256q-93 -36 -209 -36q-239 0 -239 260v335q0 89 -76 89q-50 0 -125 -50v-614h-447z" />
<glyph unicode="i" horiz-adv-x="602" d="M20 719v244h447v-641q0 -62 47 -62q40 0 68 12v-256q-93 -36 -209 -36q-117 0 -178.5 65t-61.5 195v479h-113zM133 1090v305h334v-305h-334z" />
<glyph unicode="j" horiz-adv-x="626" d="M10 -197q25 17 40 29t38 38t36 53.5t23.5 70.5t10.5 94v631h-127v244h461v-895q0 -92 -20.5 -167t-51.5 -124.5t-81 -91t-95 -65.5t-107 -50zM158 1090v305h334v-305h-334z" />
<glyph unicode="k" horiz-adv-x="1112" d="M20 0v244h113v940h-113v243h447v-1427h-447zM469 524l260 439h363v-244h-138l-114 -184l147 -291h105v-244h-355z" />
<glyph unicode="l" horiz-adv-x="602" d="M20 1184v243h447v-1105q0 -62 47 -62q40 0 68 12v-256q-93 -36 -209 -36q-117 0 -178.5 65t-61.5 195v944h-113z" />
<glyph unicode="m" horiz-adv-x="1671" d="M20 0v244h113v475h-113v244h447v-107q28 26 44 39.5t53.5 38.5t82.5 37t98 12q176 0 234 -149l10 10q29 29 48.5 46t57.5 42.5t84.5 38t100.5 12.5q120 0 188 -75t68 -220v-366q0 -62 47 -62q40 0 68 12v-256q-93 -36 -209 -36q-117 0 -178.5 65t-61.5 195v335 q0 89 -76 89q-10 0 -20 -1.5t-18 -3.5t-18 -6.5t-16 -7.5t-16 -9t-13.5 -8t-13 -8.5t-10.5 -7.5v-612h-333v575q0 89 -76 89q-50 0 -125 -50v-614h-447z" />
<glyph unicode="n" d="M20 0v244h113v475h-113v244h447v-107q28 26 44 39.5t53.5 38.5t82.5 37t98 12q120 0 188 -75t68 -220v-366q0 -62 48 -62q39 0 67 12v-256q-93 -36 -209 -36q-239 0 -239 260v335q0 89 -76 89q-50 0 -125 -50v-614h-447z" />
<glyph unicode="o" horiz-adv-x="1126" d="M61 481q0 128 37 225.5t105 157.5t158.5 89.5t201.5 29.5q109 0 199 -30t158.5 -89.5t106.5 -157t38 -225.5t-38 -225.5t-106.5 -157t-158.5 -89t-199 -29.5q-111 0 -201 29.5t-158 89t-105.5 157t-37.5 225.5zM406 481q0 -235 157 -235q158 0 158 235q0 238 -158 238 q-157 0 -157 -238z" />
<glyph unicode="p" horiz-adv-x="1134" d="M20 -166h113v885h-113v244h447v-68q26 20 41 30.5t46 26.5t70 23.5t87 7.5q72 0 132.5 -25.5t111 -80t79.5 -152t29 -229.5q0 -516 -356 -516q-141 0 -240 71v-217h166v-244h-613v244zM467 293q70 -41 133 -41q28 0 48.5 10t37 36t25 75.5t8.5 124.5q0 66 -9.5 109.5 t-28 64.5t-39 29t-48.5 8q-55 0 -127 -50v-366z" />
<glyph unicode="q" d="M72 485q0 94 16 171.5t44.5 130.5t64 92.5t79 61.5t86 32t87.5 10q60 0 107 -14.5t67.5 -29t44.5 -36.5v60h448v-244h-115v-885h115v-244h-602v244h154v242q-96 -96 -242 -96q-59 0 -109 14.5t-96.5 51t-78.5 92.5t-51 144.5t-19 202.5zM416 487q0 -135 29.5 -185 t86.5 -50q69 0 136 57v359q-61 43 -117 43q-63 0 -99 -49.5t-36 -174.5z" />
<glyph unicode="r" horiz-adv-x="761" d="M20 0v244h113v475h-113v244h447v-132q90 152 274 152v-332q-82 0 -158.5 -32.5t-115.5 -86.5v-288h156v-244h-603z" />
<glyph unicode="s" horiz-adv-x="892" d="M61 659q0 72 20 128t55 92.5t84.5 60t105 33.5t120.5 10q212 0 373 -61v-277h-244v82q-54 6 -90 6q-82 0 -82 -53q0 -14 6.5 -23.5t24.5 -16.5t31 -10t43 -9l84 -17q250 -50 250 -307q0 -171 -98.5 -244t-282.5 -73q-211 0 -398 67v283h244v-84q81 -13 105 -13 q46 0 67 12t21 40t-24.5 41t-76.5 24l-75 17q-39 9 -70.5 20t-69.5 33.5t-63 52.5t-42.5 78t-17.5 108z" />
<glyph unicode="t" horiz-adv-x="622" d="M20 709v254h113l41 266h293v-266h135v-254h-135v-385q0 -62 47 -62q31 0 88 19v-258q-101 -43 -229 -43q-117 0 -178.5 65t-61.5 195v469h-113z" />
<glyph unicode="u" d="M20 719v244h447v-598q0 -93 72 -93q55 0 129 56v635h333v-641q0 -62 48 -62q39 0 67 12v-256q-93 -36 -205 -36q-165 0 -206 141q-59 -66 -133.5 -103.5t-180.5 -37.5q-124 0 -191 74.5t-67 219.5v445h-113z" />
<glyph unicode="v" horiz-adv-x="1085" d="M20 719v244h396l127 -601l125 601h397v-244h-107l-184 -719h-461l-186 719h-107z" />
<glyph unicode="w" horiz-adv-x="1767" d="M20 719v244h412l113 -609l147 609h385l150 -609l108 609h412v-244h-105l-167 -719h-474l-116 469l-121 -469h-473l-168 719h-103z" />
<glyph unicode="x" horiz-adv-x="1056" d="M20 0v244h107l123 254l-115 221h-115v244h379l129 -287l129 287h379v-244h-114l-113 -221l123 -254h104v-244h-374l-134 309l-135 -309h-373z" />
<glyph unicode="y" horiz-adv-x="1052" d="M20 719v244h377l129 -474l129 474h377v-244h-102l-201 -600q-62 -184 -133 -292t-181 -171t-282 -90l-65 246q101 33 169 82t97 126l18 50l-227 649h-105z" />
<glyph unicode="z" horiz-adv-x="1015" d="M47 0l369 688h-129v-113h-234v388h912l-371 -689h133v125h236v-399h-916z" />
<glyph unicode="{" horiz-adv-x="589" d="M20 569v222q99 27 99 147v236q0 85 21 147t59.5 102t100.5 64t136 33.5t174 9.5v-205q-72 -5 -109.5 -41t-37.5 -113v-215q0 -69 -12 -118t-37 -79.5t-52.5 -47.5t-68.5 -31q55 -19 89 -44.5t57.5 -83.5t23.5 -149v-215q0 -77 37 -112.5t110 -40.5v-205q-100 0 -174 9.5 t-136 33.5t-100.5 64t-59.5 102t-21 147v236q0 121 -99 147z" />
<glyph unicode="|" horiz-adv-x="542" d="M104 -168v1698h334v-1698h-334z" />
<glyph unicode="}" horiz-adv-x="589" d="M-20 35q72 5 109.5 40.5t37.5 112.5v215q0 91 23.5 149t57.5 83.5t89 44.5q-41 14 -68.5 31t-52.5 47.5t-37 79.5t-12 118v215q0 77 -37 113t-110 41v205q100 0 174 -9.5t136 -33.5t100.5 -64t59.5 -102t21 -147v-236q0 -121 98 -147v-222q-98 -27 -98 -147v-236 q0 -85 -21 -147t-59.5 -102t-100.5 -64t-136 -33.5t-174 -9.5v205z" />
<glyph unicode="~" horiz-adv-x="892" d="M51 545q3 9 9 24t28.5 53t49.5 67t73.5 53t99.5 24q61 0 107.5 -16.5t82 -33t68.5 -16.5q36 0 69.5 17.5t48.5 34.5l15 18l140 -139q-3 -9 -8 -23.5t-26 -52.5t-46.5 -67t-70.5 -52.5t-97 -23.5q-74 0 -151 32.5t-119 32.5q-33 0 -65.5 -17.5t-48.5 -34.5l-17 -17z" />
<glyph unicode="&#xa1;" horiz-adv-x="573" d="M104 0v535l21 368h324l20 -368v-535h-365zM104 1020v346h365v-346h-365z" />
<glyph unicode="&#xa2;" horiz-adv-x="970" d="M72 471q0 116 27 206t75.5 148t108 93t131.5 51v231h254v-225q127 -18 241 -78v-322h-243v127q-49 7 -72 7q-81 0 -129.5 -58t-48.5 -174q0 -111 46 -167t120 -56q44 0 84 10v135h243v-325q-112 -64 -241 -84v-228h-254v228q-73 14 -132.5 48t-107.5 90.5t-75 144 t-27 198.5z" />
<glyph unicode="&#xa3;" horiz-adv-x="1001" d="M51 0v231q125 131 125 324h-125v244h125v98q0 216 111.5 322t308.5 106q85 0 163.5 -14.5t111.5 -26.5t79 -31v-329h-243v129q-28 8 -78 8q-119 0 -119 -162v-100h274v-244h-274q0 -108 -17.5 -177t-64.5 -114h279v133h243v-397h-899z" />
<glyph unicode="&#xa4;" horiz-adv-x="1146" d="M176 340l152 152q-52 74 -52 167q0 87 46 158l-146 148l86 86l146 -146q77 51 165 51q93 0 166 -51l146 144l86 -86l-146 -148q43 -67 43 -156q0 -91 -49 -165l152 -152l-86 -86l-154 152q-71 -46 -158 -46q-86 0 -157 46l-154 -154zM399 659q0 -77 50.5 -127.5 t123.5 -50.5t122.5 50.5t49.5 127.5t-49.5 128t-122.5 51t-123.5 -51t-50.5 -128z" />
<glyph unicode="&#xa5;" horiz-adv-x="1118" d="M20 1061v244h533v-244h-80l84 -236l172 480h369v-244h-103l-100 -227h125v-224h-221l-33 -71h254v-224h-297v-71h154v-244h-652v244h154v71h-299v224h258l-29 71h-229v224h139l-96 227h-103z" />
<glyph unicode="&#xa6;" horiz-adv-x="542" d="M104 -168v733h334v-733h-334zM104 797v733h334v-733h-334z" />
<glyph unicode="&#xa7;" horiz-adv-x="915" d="M51 575q0 154 144 222q-50 38 -78.5 89.5t-28.5 135.5q0 78 30 137.5t83.5 95t121 53t148.5 17.5q191 0 356 -59v-279h-243v76q-40 8 -78 8q-76 0 -76 -49q0 -8 2.5 -15t9 -12.5t11.5 -9t17.5 -8.5t18.5 -7t22.5 -7t23.5 -7l100 -32q50 -17 84 -33.5t70.5 -45.5 t55.5 -74.5t19 -106.5q0 -154 -137 -220q100 -79 100 -229q0 -154 -100.5 -225.5t-280.5 -71.5q-177 0 -368 68v282h244v-84q46 -8 84 -8q79 0 79 45q0 9 -2 17t-8.5 14t-11 10.5t-17 9.5t-18 7t-22.5 8t-23 8l-82 29q-105 37 -142 59q-108 65 -108 192zM340 649 q0 -15 6 -25.5t19.5 -18t22.5 -11t26 -8.5l131 -43q30 23 30 55q0 26 -14 39.5t-47 24.5l-139 49q-35 -26 -35 -62z" />
<glyph unicode="&#xa8;" horiz-adv-x="804" d="M31 1122v295h305v-295h-305zM469 1122v295h305v-295h-305z" />
<glyph unicode="&#xa9;" horiz-adv-x="1691" d="M61 684q0 186 60.5 332.5t167.5 239.5t248.5 141.5t308.5 48.5t308.5 -48t248 -141t167 -240t60.5 -333q0 -187 -60.5 -334.5t-167 -240.5t-248 -141t-308.5 -48t-308.5 48t-248.5 141t-167.5 240.5t-60.5 334.5zM416 684q0 -242 115.5 -364.5t314.5 -122.5 q204 0 317 122t113 365q0 242 -115.5 364.5t-314.5 122.5t-314.5 -122.5t-115.5 -364.5zM530 682q0 191 94 291t248 100q135 0 246 -84l-59 -143q-100 57 -170 57q-61 0 -102.5 -54.5t-41.5 -166.5q0 -217 138 -217q84 0 170 61l65 -141q-24 -18 -40.5 -29t-50 -28.5 t-75 -26t-88.5 -8.5q-70 0 -127.5 20t-105 63.5t-74.5 121t-27 184.5z" />
<glyph unicode="&#xaa;" horiz-adv-x="882" d="M57 793q0 64 21 112t54 76t82 45t97.5 23t108.5 6h96v18q0 68 -72 68q-17 0 -35 -2t-40 -6.5t-37.5 -8t-42 -12t-39 -12.5t-43 -14t-39.5 -13l-59 213q117 50 205 75t188 25q323 0 323 -309v-518h-309v59q-79 -75 -197 -75q-110 0 -186 61t-76 189zM98 0v264h727v-264 h-727zM375 821q0 -63 59 -63q42 0 82 28v113h-53q-44 0 -66 -21.5t-22 -56.5z" />
<glyph unicode="&#xab;" horiz-adv-x="1128" d="M41 563l332 459l227 -137l-217 -322l217 -321l-227 -138zM526 563l332 459l229 -137l-217 -322l217 -321l-229 -138z" />
<glyph unicode="&#xac;" horiz-adv-x="997" d="M61 487v244h875v-510h-252v266h-623z" />
<glyph unicode="&#xad;" horiz-adv-x="567" d="M61 446v265h445v-265h-445z" />
<glyph unicode="&#xae;" horiz-adv-x="1691" d="M61 684q0 186 60.5 332.5t167.5 239.5t248.5 141.5t308.5 48.5t308.5 -48t248 -141t167 -240t60.5 -333q0 -187 -60.5 -334.5t-167 -240.5t-248 -141t-308.5 -48t-308.5 48t-248.5 141t-167.5 240.5t-60.5 334.5zM416 684q0 -242 115.5 -364.5t314.5 -122.5 q204 0 317 122t113 365q0 242 -115.5 364.5t-314.5 122.5t-314.5 -122.5t-115.5 -364.5zM594 309v756h244q58 0 105 -11t88 -37t64 -74t23 -116q0 -153 -106 -215l155 -270l-209 -41l-143 274h-12v-266h-209zM803 725h18q43 0 62.5 18t19.5 74q0 51 -18.5 70.5t-61.5 19.5 h-20v-182z" />
<glyph unicode="&#xaf;" horiz-adv-x="626" d="M31 1151v266h565v-266h-565z" />
<glyph unicode="&#xb0;" horiz-adv-x="958" d="M41 997q0 102 35.5 179t97.5 121.5t138.5 66.5t166.5 22t167.5 -23t139 -68.5t97 -122t35.5 -175.5t-34.5 -175t-96 -122t-139 -69t-169.5 -23q-72 0 -135 12.5t-119.5 41.5t-96.5 73t-63.5 111t-23.5 151zM367 997q0 -166 112 -166q52 0 82.5 35.5t30.5 130.5 q0 98 -31 133t-82 35q-112 0 -112 -168z" />
<glyph unicode="&#xb1;" horiz-adv-x="901" d="M61 0v264h779v-264h-779zM61 526v244h265v266h252v-266h262v-244h-262v-194h-252v194h-265z" />
<glyph unicode="&#xb2;" horiz-adv-x="909" d="M61 412l224 225l-224 223l172 172l224 -225l223 223l164 -166l-221 -221l225 -225l-172 -172l-225 225l-224 -223z" />
<glyph unicode="&#xb3;" horiz-adv-x="909" d="M61 412l224 225l-224 223l172 172l224 -225l223 223l164 -166l-221 -221l225 -225l-172 -172l-225 225l-224 -223z" />
<glyph unicode="&#xb4;" horiz-adv-x="567" d="M31 1110l141 317h365l-172 -317h-334z" />
<glyph unicode="&#xb5;" d="M20 -166h113v885h-113v244h447v-598q0 -93 72 -93q55 0 129 56v635h333v-641q0 -62 48 -62q39 0 67 12v-256q-93 -36 -209 -36q-84 0 -132.5 35t-69.5 106q-104 -115 -238 -133v-154h166v-244h-613v244z" />
<glyph unicode="&#xb6;" horiz-adv-x="1320" d="M51 971q0 101 35.5 178.5t98 124t142.5 69.5t175 23h209v-1366h-490v244h156v354q-153 19 -239.5 117t-86.5 256zM854 0v1366h446v-244h-112v-878h112v-244h-446z" />
<glyph unicode="&#xb7;" horiz-adv-x="524" d="M94 524v334h336v-334h-336z" />
<glyph unicode="&#xb8;" horiz-adv-x="397" d="M31 -61h336v-306l-66 -276l-223 39l43 217h-90v326z" />
<glyph unicode="&#xb9;" horiz-adv-x="909" d="M61 412l224 225l-224 223l172 172l224 -225l223 223l164 -166l-221 -221l225 -225l-172 -172l-225 225l-224 -223z" />
<glyph unicode="&#xba;" horiz-adv-x="972" d="M57 965q0 107 33.5 189t92.5 132t135 75t167 25q89 0 165 -25t136 -74.5t94.5 -132t34.5 -189.5t-34 -189t-94 -132t-136.5 -75.5t-165.5 -25.5q-90 0 -166.5 25.5t-135.5 75.5t-92.5 132t-33.5 189zM98 0v264h776v-264h-776zM387 965q0 -185 98 -185q101 0 101 185 q0 98 -24.5 141t-76.5 43t-75 -42.5t-23 -141.5z" />
<glyph unicode="&#xbb;" horiz-adv-x="1128" d="M41 242l217 321l-217 322l229 137l330 -459l-330 -459zM526 242l217 321l-217 322l230 137l331 -459l-331 -459z" />
<glyph unicode="&#xbc;" horiz-adv-x="909" d="M61 412l224 225l-224 223l172 172l224 -225l223 223l164 -166l-221 -221l225 -225l-172 -172l-225 225l-224 -223z" />
<glyph unicode="&#xbd;" horiz-adv-x="909" d="M61 412l224 225l-224 223l172 172l224 -225l223 223l164 -166l-221 -221l225 -225l-172 -172l-225 225l-224 -223z" />
<glyph unicode="&#xbe;" horiz-adv-x="909" d="M61 412l224 225l-224 223l172 172l224 -225l223 223l164 -166l-221 -221l225 -225l-172 -172l-225 225l-224 -223z" />
<glyph unicode="&#xbf;" horiz-adv-x="954" d="M61 342q0 97 29.5 160t81.5 119q17 18 53.5 52t54 52.5t33 51t15.5 67.5q0 12 -4 59h354l4 -41q2 -18 2 -51q0 -59 -13.5 -108t-41.5 -88t-49 -61.5t-58 -55.5q-4 -4 -19 -17.5t-19.5 -18l-16.5 -16.5t-16.5 -18t-12 -17.5t-10.5 -21t-5.5 -21.5t-2.5 -24q0 -42 27 -67 t83 -25q67 0 123 18v136h244v-347q-217 -79 -422 -79q-192 0 -303 86t-111 276zM319 1020v346h365v-346h-365z" />
<glyph unicode="&#xc0;" horiz-adv-x="1298" d="M20 0v244h105l242 878h-134v244h631l312 -1122h102v-244h-389l-76 293h-330l-69 -293h-394zM328 1683h364l121 -256h-334zM537 567h223l-113 471z" />
<glyph unicode="&#xc1;" horiz-adv-x="1298" d="M20 0v244h105l242 878h-134v244h631l312 -1122h102v-244h-389l-76 293h-330l-69 -293h-394zM481 1427l121 256h365l-152 -256h-334zM537 567h223l-113 471z" />
<glyph unicode="&#xc2;" horiz-adv-x="1298" d="M20 0v244h105l242 878h-134v244h631l312 -1122h102v-244h-389l-76 293h-330l-69 -293h-394zM236 1427l165 256h500l164 -256h-383l-31 80l-37 -80h-378zM537 567h223l-113 471z" />
<glyph unicode="&#xc3;" horiz-adv-x="1298" d="M20 0v244h105l242 878h-134v244h631l312 -1122h102v-244h-389l-76 293h-330l-69 -293h-394zM301 1567q3 8 8.5 21t26 46.5t45.5 59t68 46.5t92 21q66 0 129 -24.5t92 -24.5q35 0 68.5 12t49.5 24l17 11l102 -147q-3 -8 -8.5 -20t-26.5 -44t-45 -56.5t-64.5 -44.5 t-84.5 -20q-61 0 -123 25t-98 25t-71.5 -12.5t-53.5 -24.5l-18 -13zM537 567h223l-113 471z" />
<glyph unicode="&#xc4;" horiz-adv-x="1298" d="M20 0v244h105l242 878h-134v244h631l312 -1122h102v-244h-389l-76 293h-330l-69 -293h-394zM279 1427v295h305v-295h-305zM537 567h223l-113 471zM717 1427v295h305v-295h-305z" />
<glyph unicode="&#xc5;" horiz-adv-x="1298" d="M20 0v244h105l260 946q-76 65 -76 190q0 267 342 267q340 0 340 -267q0 -123 -78 -190l263 -946h102v-244h-389l-76 293h-330l-69 -293h-394zM537 567h223l-113 471zM588 1380q0 -90 63 -90q64 0 64 90q0 93 -64 93q-63 0 -63 -93z" />
<glyph unicode="&#xc6;" horiz-adv-x="1691" d="M20 0v244h105l373 878h-176v244h1329v-397h-244v123h-248v-261h352v-272h-352v-285h248v129h244v-403h-836v293h-305l-115 -293h-375zM602 567h213v549z" />
<glyph unicode="&#xc7;" horiz-adv-x="1144" d="M72 682q0 177 45.5 313.5t127.5 221t190 127t239 42.5q98 0 183.5 -16t126 -31t87.5 -37l12 -6v-327h-245v123q-81 18 -140 18q-120 0 -196 -106.5t-76 -321.5q0 -119 21.5 -204.5t59.5 -131t82.5 -66t98.5 -20.5q62 0 150 23v120h245v-327q-2 -1 -31 -14.5t-41 -18.5 t-45 -17.5t-60 -18t-66.5 -13.5t-85.5 -11t-97 -3q-79 0 -149 14.5t-137 46.5t-120.5 87t-94 130.5t-62.5 183.5t-22 240zM481 -61h336v-306l-65 -276l-224 39l43 217h-90v326z" />
<glyph unicode="&#xc8;" horiz-adv-x="1081" d="M20 0v244h113v878h-113v244h1010v-397h-244v123h-309v-261h414v-272h-414v-285h309v129h244v-403h-1010zM256 1683h365l120 -256h-333z" />
<glyph unicode="&#xc9;" horiz-adv-x="1081" d="M20 0v244h113v878h-113v244h1010v-397h-244v123h-309v-261h414v-272h-414v-285h309v129h244v-403h-1010zM358 1427l121 256h365l-152 -256h-334z" />
<glyph unicode="&#xca;" horiz-adv-x="1081" d="M20 0v244h113v878h-113v244h1010v-397h-244v123h-309v-261h414v-272h-414v-285h309v129h244v-403h-1010zM113 1427l166 256h499l164 -256h-383l-31 80l-36 -80h-379z" />
<glyph unicode="&#xcb;" horiz-adv-x="1081" d="M20 0v244h113v878h-113v244h1010v-397h-244v123h-309v-261h414v-272h-414v-285h309v129h244v-403h-1010zM168 1427v295h305v-295h-305zM606 1427v295h305v-295h-305z" />
<glyph unicode="&#xcc;" horiz-adv-x="612" d="M2 1683h365l120 -256h-333zM20 0v244h113v878h-113v244h572v-244h-115v-878h115v-244h-572z" />
<glyph unicode="&#xcd;" horiz-adv-x="612" d="M20 0v244h113v878h-113v244h572v-244h-115v-878h115v-244h-572zM135 1427l121 256h365l-152 -256h-334z" />
<glyph unicode="&#xce;" horiz-adv-x="612" d="M-109 1427l166 256h500l164 -256h-383l-31 80l-37 -80h-379zM20 0v244h113v878h-113v244h572v-244h-115v-878h115v-244h-572z" />
<glyph unicode="&#xcf;" horiz-adv-x="612" d="M-66 1427v295h306v-295h-306zM20 0v244h113v878h-113v244h572v-244h-115v-878h115v-244h-572zM373 1427v295h305v-295h-305z" />
<glyph unicode="&#xd0;" horiz-adv-x="1316" d="M20 0v244h113v315h-82v272h82v291h-113v244h570q145 0 260.5 -36t206 -114t139.5 -213t49 -321q0 -152 -33 -269t-91.5 -194.5t-146 -127t-190 -70.5t-229.5 -21h-535zM477 274h72q180 0 261 94.5t81 313.5q0 118 -21 198.5t-64 126.5t-100 65.5t-137 19.5h-92v-261h264 v-272h-264v-285z" />
<glyph unicode="&#xd1;" horiz-adv-x="1361" d="M20 0v244h113v878h-113v244h480l383 -659v415h-115v244h573v-244h-114v-1122h-324l-426 737v-493h115v-244h-572zM332 1567q3 8 8 21t26 46.5t46 59t67.5 46.5t91.5 21q66 0 129.5 -24.5t92.5 -24.5q35 0 68.5 12t50.5 24l16 11l102 -147q-3 -8 -8.5 -20t-26.5 -44 t-45 -56.5t-64.5 -44.5t-84.5 -20q-61 0 -123 25t-98 25t-72 -12.5t-54 -24.5l-18 -13z" />
<glyph unicode="&#xd2;" horiz-adv-x="1380" d="M61 684q0 176 46.5 312t131.5 220.5t198.5 127t252.5 42.5q138 0 251.5 -43.5t198.5 -128.5t132 -220.5t47 -309.5q0 -175 -46.5 -310.5t-131.5 -221t-198.5 -129t-252.5 -43.5t-253 43.5t-198.5 129t-131 221t-46.5 310.5zM367 1683h364l121 -256h-334zM416 684 q0 -226 72.5 -333t201.5 -107t202 106.5t73 333.5q0 226 -72 335t-203 109q-130 0 -202 -109.5t-72 -334.5z" />
<glyph unicode="&#xd3;" horiz-adv-x="1380" d="M61 684q0 176 46.5 312t131.5 220.5t198.5 127t252.5 42.5q138 0 251.5 -43.5t198.5 -128.5t132 -220.5t47 -309.5q0 -175 -46.5 -310.5t-131.5 -221t-198.5 -129t-252.5 -43.5t-253 43.5t-198.5 129t-131 221t-46.5 310.5zM416 684q0 -226 72.5 -333t201.5 -107 t202 106.5t73 333.5q0 226 -72 335t-203 109q-130 0 -202 -109.5t-72 -334.5zM498 1427l120 256h365l-152 -256h-333z" />
<glyph unicode="&#xd4;" horiz-adv-x="1380" d="M61 684q0 176 46.5 312t131.5 220.5t198.5 127t252.5 42.5q138 0 251.5 -43.5t198.5 -128.5t132 -220.5t47 -309.5q0 -175 -46.5 -310.5t-131.5 -221t-198.5 -129t-252.5 -43.5t-253 43.5t-198.5 129t-131 221t-46.5 310.5zM276 1427l166 256h500l164 -256h-383l-31 80 l-37 -80h-379zM416 684q0 -226 72.5 -333t201.5 -107t202 106.5t73 333.5q0 226 -72 335t-203 109q-130 0 -202 -109.5t-72 -334.5z" />
<glyph unicode="&#xd5;" horiz-adv-x="1380" d="M61 684q0 176 46.5 312t131.5 220.5t198.5 127t252.5 42.5q138 0 251.5 -43.5t198.5 -128.5t132 -220.5t47 -309.5q0 -175 -46.5 -310.5t-131.5 -221t-198.5 -129t-252.5 -43.5t-253 43.5t-198.5 129t-131 221t-46.5 310.5zM342 1567q3 8 8.5 21t26 46.5t45.5 59t68 46.5 t92 21q66 0 129 -24.5t92 -24.5q35 0 68.5 12t50.5 24l16 11l102 -147q-3 -8 -8.5 -20t-26.5 -44t-45 -56.5t-64.5 -44.5t-84.5 -20q-61 0 -123 25t-98 25t-72 -12.5t-54 -24.5l-18 -13zM416 684q0 -226 72.5 -333t201.5 -107t202 106.5t73 333.5q0 226 -72 335t-203 109 q-130 0 -202 -109.5t-72 -334.5z" />
<glyph unicode="&#xd6;" horiz-adv-x="1380" d="M61 684q0 176 46.5 312t131.5 220.5t198.5 127t252.5 42.5q138 0 251.5 -43.5t198.5 -128.5t132 -220.5t47 -309.5q0 -175 -46.5 -310.5t-131.5 -221t-198.5 -129t-252.5 -43.5t-253 43.5t-198.5 129t-131 221t-46.5 310.5zM258 1427v295h305v-295h-305zM416 684 q0 -226 72.5 -333t201.5 -107t202 106.5t73 333.5q0 226 -72 335t-203 109q-130 0 -202 -109.5t-72 -334.5zM819 1427v295h305v-295h-305z" />
<glyph unicode="&#xd7;" horiz-adv-x="909" d="M61 412l224 225l-224 223l172 172l224 -225l223 223l164 -166l-221 -221l225 -225l-172 -172l-225 225l-224 -223z" />
<glyph unicode="&#xd8;" horiz-adv-x="1400" d="M61 -47l164 227q-153 186 -153 504q0 176 46.5 311.5t131 220.5t198 127.5t252.5 42.5q185 0 324 -77l145 207l170 -101l-161 -229q151 -184 151 -502q0 -175 -46.5 -310.5t-131.5 -221t-198.5 -129t-252.5 -43.5q-190 0 -327 77l-146 -204zM426 684q0 -102 20 -190 l408 577q-63 57 -154 57q-128 0 -201 -108.5t-73 -335.5zM547 299q58 -55 153 -55q126 0 200.5 105t74.5 335q0 99 -21 195z" />
<glyph unicode="&#xd9;" horiz-adv-x="1308" d="M20 1122v244h572v-244h-115v-641q0 -107 47 -160t129 -53t129 51t47 160v643h-112v244h571v-244h-114v-653q0 -489 -521 -489q-116 0 -208 26t-163.5 82t-110 152.5t-38.5 228.5v653h-113zM334 1683h364l121 -256h-334z" />
<glyph unicode="&#xda;" horiz-adv-x="1308" d="M20 1122v244h572v-244h-115v-641q0 -107 47 -160t129 -53t129 51t47 160v643h-112v244h571v-244h-114v-653q0 -489 -521 -489q-116 0 -208 26t-163.5 82t-110 152.5t-38.5 228.5v653h-113zM475 1427l121 256h365l-152 -256h-334z" />
<glyph unicode="&#xdb;" horiz-adv-x="1308" d="M20 1122v244h572v-244h-115v-641q0 -107 47 -160t129 -53t129 51t47 160v643h-112v244h571v-244h-114v-653q0 -489 -521 -489q-116 0 -208 26t-163.5 82t-110 152.5t-38.5 228.5v653h-113zM240 1427l166 256h499l164 -256h-383l-31 80l-37 -80h-378z" />
<glyph unicode="&#xdc;" horiz-adv-x="1308" d="M20 1122v244h572v-244h-115v-641q0 -107 47 -160t129 -53t129 51t47 160v643h-112v244h571v-244h-114v-653q0 -489 -521 -489q-116 0 -208 26t-163.5 82t-110 152.5t-38.5 228.5v653h-113zM283 1427v295h305v-295h-305zM721 1427v295h305v-295h-305z" />
<glyph unicode="&#xdd;" horiz-adv-x="1118" d="M20 1122v244h533v-244h-80l84 -268l172 512h369v-244h-103l-272 -661v-217h154v-244h-652v244h154v217l-256 661h-103zM391 1427l121 256h365l-152 -256h-334z" />
<glyph unicode="&#xde;" horiz-adv-x="1099" d="M20 0v244h113v878h-113v244h457v-227h84q488 0 488 -424q0 -463 -488 -463h-84v-252h-457zM477 508h53q84 0 124 38.5t40 151.5q0 103 -41 144t-125 41h-51v-375z" />
<glyph unicode="&#xdf;" horiz-adv-x="1224" d="M20 0v244h113v475h-113v244h113v47q0 221 116.5 329.5t368.5 108.5q209 0 323 -98t114 -248q0 -121 -66 -219q-8 -11 -30.5 -41.5t-31 -43.5t-17.5 -33.5t-9 -37.5q0 -18 11.5 -35t20.5 -24.5t38 -28.5l61 -45q146 -107 146 -301q0 -313 -349 -313q-156 0 -309 57v293 h223v-76q1 0 18.5 -2t24.5 -2q50 0 50 51q0 25 -14.5 42t-47.5 40l-55 39q-139 96 -139 246q0 54 15 105t28 75.5t41 69.5q19 31 28.5 49.5t18 46.5t8.5 55q0 102 -121 102q-131 0 -131 -157v-1014h-447z" />
<glyph unicode="&#xe0;" horiz-adv-x="1091" d="M51 270q0 322 430 322h144v26q0 48 -24 72.5t-81 24.5q-29 0 -58 -3.5t-55.5 -9t-33.5 -6.5v-73h-244v282q67 22 114.5 35.5t143 28t193.5 14.5q198 0 288 -88.5t90 -271.5v-301q0 -62 46 -62q39 0 67 12v-256q-93 -36 -207 -36q-156 0 -198 120q-120 -120 -306 -120 q-64 0 -118 16t-97.5 49t-68.5 90.5t-25 134.5zM197 1427h364l141 -317h-333zM395 311q0 -94 97 -94q59 0 133 51v150h-93q-137 0 -137 -107z" />
<glyph unicode="&#xe1;" horiz-adv-x="1091" d="M51 270q0 322 430 322h144v26q0 48 -24 72.5t-81 24.5q-29 0 -58 -3.5t-55.5 -9t-33.5 -6.5v-73h-244v282q67 22 114.5 35.5t143 28t193.5 14.5q198 0 288 -88.5t90 -271.5v-301q0 -62 46 -62q39 0 67 12v-256q-93 -36 -207 -36q-156 0 -198 120q-120 -120 -306 -120 q-64 0 -118 16t-97.5 49t-68.5 90.5t-25 134.5zM338 1110l141 317h365l-172 -317h-334zM395 311q0 -94 97 -94q59 0 133 51v150h-93q-137 0 -137 -107z" />
<glyph unicode="&#xe2;" horiz-adv-x="1091" d="M51 270q0 322 430 322h144v26q0 48 -24 72.5t-81 24.5q-29 0 -58 -3.5t-55.5 -9t-33.5 -6.5v-73h-244v282q67 22 114.5 35.5t143 28t193.5 14.5q198 0 288 -88.5t90 -271.5v-301q0 -62 46 -62q39 0 67 12v-256q-93 -36 -207 -36q-156 0 -198 120q-120 -120 -306 -120 q-64 0 -118 16t-97.5 49t-68.5 90.5t-25 134.5zM113 1110l166 317h499l164 -317h-362l-52 141l-57 -141h-358zM395 311q0 -94 97 -94q59 0 133 51v150h-93q-137 0 -137 -107z" />
<glyph unicode="&#xe3;" horiz-adv-x="1091" d="M51 270q0 322 430 322h144v26q0 48 -24 72.5t-81 24.5q-29 0 -58 -3.5t-55.5 -9t-33.5 -6.5v-73h-244v282q67 22 114.5 35.5t143 28t193.5 14.5q198 0 288 -88.5t90 -271.5v-301q0 -62 46 -62q39 0 67 12v-256q-93 -36 -207 -36q-156 0 -198 120q-120 -120 -306 -120 q-64 0 -118 16t-97.5 49t-68.5 90.5t-25 134.5zM172 1243q3 8 8.5 21t26 46.5t45.5 59.5t68 47t92 21q66 0 129 -24.5t92 -24.5q35 0 68.5 11.5t50.5 23.5l16 12l102 -148q-3 -7 -8.5 -19.5t-26.5 -44.5t-45 -56t-64.5 -44t-84.5 -20q-61 0 -123 24.5t-98 24.5t-72 -12.5 t-54 -24.5l-18 -12zM395 311q0 -94 97 -94q59 0 133 51v150h-93q-137 0 -137 -107z" />
<glyph unicode="&#xe4;" horiz-adv-x="1091" d="M51 270q0 322 430 322h144v26q0 48 -24 72.5t-81 24.5q-29 0 -58 -3.5t-55.5 -9t-33.5 -6.5v-73h-244v282q67 22 114.5 35.5t143 28t193.5 14.5q198 0 288 -88.5t90 -271.5v-301q0 -62 46 -62q39 0 67 12v-256q-93 -36 -207 -36q-156 0 -198 120q-120 -120 -306 -120 q-64 0 -118 16t-97.5 49t-68.5 90.5t-25 134.5zM170 1122v295h305v-295h-305zM395 311q0 -94 97 -94q59 0 133 51v150h-93q-137 0 -137 -107zM608 1122v295h305v-295h-305z" />
<glyph unicode="&#xe5;" horiz-adv-x="1091" d="M51 270q0 322 430 322h144v26q0 48 -24 72.5t-81 24.5q-29 0 -58 -3.5t-55.5 -9t-33.5 -6.5v-73h-244v282q67 22 114.5 35.5t143 28t193.5 14.5q198 0 288 -88.5t90 -271.5v-301q0 -62 46 -62q39 0 67 12v-256q-93 -36 -207 -36q-156 0 -198 120q-120 -120 -306 -120 q-64 0 -118 16t-97.5 49t-68.5 90.5t-25 134.5zM193 1298q0 267 342 267q339 0 339 -267q0 -264 -339 -264q-342 0 -342 264zM395 311q0 -94 97 -94q59 0 133 51v150h-93q-137 0 -137 -107zM471 1298q0 -90 64 -90q63 0 63 90q0 93 -63 93q-64 0 -64 -93z" />
<glyph unicode="&#xe6;" horiz-adv-x="1595" d="M51 270q0 322 430 322h144v26q0 48 -24 72.5t-81 24.5q-29 0 -58 -3.5t-55.5 -9t-33.5 -6.5v-73h-244v282q67 22 114.5 35.5t143 28t193.5 14.5q101 0 158.5 -23t97.5 -61q96 84 251 84q229 0 338 -147.5t109 -468.5h-563q15 -129 162 -129q128 0 286 92l103 -211 q-39 -28 -67.5 -45t-83.5 -42.5t-124 -38.5t-149 -13q-130 0 -218.5 39.5t-146.5 125.5q-28 -37 -55.5 -63t-68.5 -51t-98.5 -38t-129.5 -13t-130 16t-103.5 49t-71 90t-25.5 135zM395 311q0 -94 101 -94q54 0 91.5 38.5t37.5 90.5v72h-93q-137 0 -137 -107zM969 545h225 q0 102 -23.5 155.5t-83.5 53.5q-63 0 -88 -49.5t-30 -159.5z" />
<glyph unicode="&#xe7;" horiz-adv-x="970" d="M72 471q0 115 27.5 204.5t73 146.5t108.5 94t129 52t141 15q191 0 358 -86v-322h-243v127q-49 7 -72 7q-81 0 -129.5 -58t-48.5 -174q0 -111 46 -167t120 -56q44 0 84 10v135h243v-325q-164 -94 -374 -94q-73 0 -138 15t-125.5 51.5t-104 91t-69.5 140t-26 193.5z M354 -61h336v-306l-65 -276l-224 39l43 217h-90v326z" />
<glyph unicode="&#xe8;" horiz-adv-x="1044" d="M72 477q0 244 125 375t340 131q230 0 338 -148t108 -468h-565q7 -64 49.5 -96.5t114.5 -32.5q128 0 286 92l101 -211q-40 -28 -67.5 -44.5t-82.5 -42.5t-123.5 -39t-148.5 -13q-82 0 -151.5 16.5t-130 53.5t-103 94t-66.5 141.5t-24 191.5zM190 1427h365l141 -317h-334z M418 545h223q0 102 -23 155.5t-83 53.5q-63 0 -87.5 -49t-29.5 -160z" />
<glyph unicode="&#xe9;" horiz-adv-x="1044" d="M72 477q0 244 125 375t340 131q230 0 338 -148t108 -468h-565q7 -64 49.5 -96.5t114.5 -32.5q128 0 286 92l101 -211q-40 -28 -67.5 -44.5t-82.5 -42.5t-123.5 -39t-148.5 -13q-82 0 -151.5 16.5t-130 53.5t-103 94t-66.5 141.5t-24 191.5zM350 1110l142 317h364 l-172 -317h-334zM418 545h223q0 102 -23 155.5t-83 53.5q-63 0 -87.5 -49t-29.5 -160z" />
<glyph unicode="&#xea;" horiz-adv-x="1044" d="M72 477q0 244 125 375t340 131q230 0 338 -148t108 -468h-565q7 -64 49.5 -96.5t114.5 -32.5q128 0 286 92l101 -211q-40 -28 -67.5 -44.5t-82.5 -42.5t-123.5 -39t-148.5 -13q-82 0 -151.5 16.5t-130 53.5t-103 94t-66.5 141.5t-24 191.5zM109 1110l165 317h500 l164 -317h-363l-51 141l-57 -141h-358zM418 545h223q0 102 -23 155.5t-83 53.5q-63 0 -87.5 -49t-29.5 -160z" />
<glyph unicode="&#xeb;" horiz-adv-x="1044" d="M72 477q0 244 125 375t340 131q230 0 338 -148t108 -468h-565q7 -64 49.5 -96.5t114.5 -32.5q128 0 286 92l101 -211q-40 -28 -67.5 -44.5t-82.5 -42.5t-123.5 -39t-148.5 -13q-82 0 -151.5 16.5t-130 53.5t-103 94t-66.5 141.5t-24 191.5zM152 1122v295h305v-295h-305z M418 545h223q0 102 -23 155.5t-83 53.5q-63 0 -87.5 -49t-29.5 -160zM590 1122v295h305v-295h-305z" />
<glyph unicode="&#xec;" horiz-adv-x="602" d="M-43 1427h365l141 -317h-334zM20 719v244h447v-641q0 -62 47 -62q40 0 68 12v-256q-93 -36 -209 -36q-117 0 -178.5 65t-61.5 195v479h-113z" />
<glyph unicode="&#xed;" horiz-adv-x="602" d="M20 719v244h447v-641q0 -62 47 -62q40 0 68 12v-256q-93 -36 -209 -36q-117 0 -178.5 65t-61.5 195v479h-113zM133 1110l141 317h365l-172 -317h-334z" />
<glyph unicode="&#xee;" horiz-adv-x="602" d="M-113 1110l166 317h500l164 -317h-363l-51 141l-57 -141h-359zM20 719v244h447v-641q0 -62 47 -62q40 0 68 12v-256q-93 -36 -209 -36q-117 0 -178.5 65t-61.5 195v479h-113z" />
<glyph unicode="&#xef;" horiz-adv-x="602" d="M-59 1122v295h305v-295h-305zM20 719v244h447v-641q0 -62 47 -62q40 0 68 12v-256q-93 -36 -209 -36q-117 0 -178.5 65t-61.5 195v479h-113zM358 1122v295h306v-295h-306z" />
<glyph unicode="&#xf0;" horiz-adv-x="1101" d="M61 416q0 103 25.5 184.5t66 132t96.5 83t113 45.5t119 13q129 0 209 -69q0 130 -12 194l-236 -90v203l144 53q-39 27 -97 27q-55 0 -114 -16v-138h-244v338q209 72 420 72q235 0 350 -158l174 66v-203l-90 -35q53 -168 53 -479q0 -155 -22 -269t-62 -188.5 t-103.5 -119.5t-139 -63.5t-176.5 -18.5q-225 0 -349.5 105.5t-124.5 330.5zM403 432q0 -91 37 -138.5t107 -47.5q81 0 114 69t33 211v47q-70 52 -149 52q-142 0 -142 -193z" />
<glyph unicode="&#xf1;" d="M20 0v244h113v475h-113v244h447v-107q28 26 44 39.5t53.5 38.5t82.5 37t98 12q120 0 188 -75t68 -220v-366q0 -62 48 -62q39 0 67 12v-256q-93 -36 -209 -36q-239 0 -239 260v335q0 89 -76 89q-50 0 -125 -50v-614h-447zM219 1243q3 8 8.5 21t26 46.5t45.5 59.5t68 47 t92 21q66 0 129 -24.5t92 -24.5q35 0 68.5 11.5t49.5 23.5l17 12l103 -148q-3 -7 -9 -19.5t-26.5 -44.5t-45 -56t-65 -44t-84.5 -20q-61 0 -123 24.5t-98 24.5t-71.5 -12.5t-53.5 -24.5l-18 -12z" />
<glyph unicode="&#xf2;" horiz-adv-x="1126" d="M61 481q0 128 37 225.5t105 157.5t158.5 89.5t201.5 29.5q109 0 199 -30t158.5 -89.5t106.5 -157t38 -225.5t-38 -225.5t-106.5 -157t-158.5 -89t-199 -29.5q-111 0 -201 29.5t-158 89t-105.5 157t-37.5 225.5zM211 1427h364l142 -317h-334zM406 481q0 -235 157 -235 q158 0 158 235q0 238 -158 238q-157 0 -157 -238z" />
<glyph unicode="&#xf3;" horiz-adv-x="1126" d="M61 481q0 128 37 225.5t105 157.5t158.5 89.5t201.5 29.5q109 0 199 -30t158.5 -89.5t106.5 -157t38 -225.5t-38 -225.5t-106.5 -157t-158.5 -89t-199 -29.5q-111 0 -201 29.5t-158 89t-105.5 157t-37.5 225.5zM383 1110l141 317h365l-172 -317h-334zM406 481 q0 -235 157 -235q158 0 158 235q0 238 -158 238q-157 0 -157 -238z" />
<glyph unicode="&#xf4;" horiz-adv-x="1126" d="M61 481q0 128 37 225.5t105 157.5t158.5 89.5t201.5 29.5q109 0 199 -30t158.5 -89.5t106.5 -157t38 -225.5t-38 -225.5t-106.5 -157t-158.5 -89t-199 -29.5q-111 0 -201 29.5t-158 89t-105.5 157t-37.5 225.5zM150 1110l165 317h500l164 -317h-363l-51 141l-57 -141 h-358zM406 481q0 -235 157 -235q158 0 158 235q0 238 -158 238q-157 0 -157 -238z" />
<glyph unicode="&#xf5;" horiz-adv-x="1126" d="M61 481q0 128 37 225.5t105 157.5t158.5 89.5t201.5 29.5q109 0 199 -30t158.5 -89.5t106.5 -157t38 -225.5t-38 -225.5t-106.5 -157t-158.5 -89t-199 -29.5q-111 0 -201 29.5t-158 89t-105.5 157t-37.5 225.5zM205 1243q3 8 8 21t26 46.5t46 59.5t67.5 47t91.5 21 q66 0 129.5 -24.5t92.5 -24.5q35 0 68.5 11.5t49.5 23.5l17 12l102 -148q-3 -7 -8.5 -19.5t-26.5 -44.5t-45 -56t-64.5 -44t-84.5 -20q-61 0 -123 24.5t-98 24.5t-72 -12.5t-54 -24.5l-18 -12zM406 481q0 -235 157 -235q158 0 158 235q0 238 -158 238q-157 0 -157 -238z" />
<glyph unicode="&#xf6;" horiz-adv-x="1126" d="M61 481q0 128 37 225.5t105 157.5t158.5 89.5t201.5 29.5q109 0 199 -30t158.5 -89.5t106.5 -157t38 -225.5t-38 -225.5t-106.5 -157t-158.5 -89t-199 -29.5q-111 0 -201 29.5t-158 89t-105.5 157t-37.5 225.5zM193 1122v295h305v-295h-305zM406 481q0 -235 157 -235 q158 0 158 235q0 238 -158 238q-157 0 -157 -238zM631 1122v295h305v-295h-305z" />
<glyph unicode="&#xf7;" horiz-adv-x="882" d="M61 496v245h760v-245h-760zM279 76v307h325v-307h-325zM279 854v307h325v-307h-325z" />
<glyph unicode="&#xf8;" horiz-adv-x="1126" d="M61 481q0 128 37.5 225.5t105.5 157.5t158 89.5t201 29.5q121 0 213 -35l101 146l159 -84l-106 -156q135 -132 135 -373q0 -128 -38 -225.5t-106.5 -157t-158.5 -89t-199 -29.5q-123 0 -213 34l-104 -149l-156 84l109 157q-138 132 -138 375zM406 481q0 -38 8 -92 l215 316q-22 14 -66 14q-157 0 -157 -238zM500 260q25 -14 63 -14q158 0 158 235q0 51 -6 92z" />
<glyph unicode="&#xf9;" d="M20 719v244h447v-598q0 -93 72 -93q55 0 129 56v635h333v-641q0 -62 48 -62q39 0 67 12v-256q-93 -36 -205 -36q-165 0 -206 141q-59 -66 -133.5 -103.5t-180.5 -37.5q-124 0 -191 74.5t-67 219.5v445h-113zM227 1427h365l141 -317h-334z" />
<glyph unicode="&#xfa;" d="M20 719v244h447v-598q0 -93 72 -93q55 0 129 56v635h333v-641q0 -62 48 -62q39 0 67 12v-256q-93 -36 -205 -36q-165 0 -206 141q-59 -66 -133.5 -103.5t-180.5 -37.5q-124 0 -191 74.5t-67 219.5v445h-113zM397 1110l142 317h364l-172 -317h-334z" />
<glyph unicode="&#xfb;" d="M20 719v244h447v-598q0 -93 72 -93q55 0 129 56v635h333v-641q0 -62 48 -62q39 0 67 12v-256q-93 -36 -205 -36q-165 0 -206 141q-59 -66 -133.5 -103.5t-180.5 -37.5q-124 0 -191 74.5t-67 219.5v445h-113zM154 1110l165 317h500l164 -317h-362l-52 141l-57 -141h-358z " />
<glyph unicode="&#xfc;" d="M20 719v244h447v-598q0 -93 72 -93q55 0 129 56v635h333v-641q0 -62 48 -62q39 0 67 12v-256q-93 -36 -205 -36q-165 0 -206 141q-59 -66 -133.5 -103.5t-180.5 -37.5q-124 0 -191 74.5t-67 219.5v445h-113zM197 1122v295h305v-295h-305zM635 1122v295h305v-295h-305z " />
<glyph unicode="&#xfd;" horiz-adv-x="1052" d="M20 719v244h377l129 -474l129 474h377v-244h-102l-201 -600q-62 -184 -133 -292t-181 -171t-282 -90l-65 246q101 33 169 82t97 126l18 50l-227 649h-105zM360 1110l142 317h364l-172 -317h-334z" />
<glyph unicode="&#xfe;" horiz-adv-x="1134" d="M20 -166h113v1350h-113v243h447v-532q26 20 41 30.5t46 26.5t70 23.5t87 7.5q72 0 132.5 -25.5t111 -80t79.5 -152t29 -229.5q0 -516 -356 -516q-141 0 -240 71v-217h166v-244h-613v244zM467 293q70 -41 133 -41q28 0 48.5 10t37 36t25 75.5t8.5 124.5q0 66 -9.5 109.5 t-28 64.5t-39 29t-48.5 8q-55 0 -127 -50v-366z" />
<glyph unicode="&#xff;" horiz-adv-x="1052" d="M20 719v244h377l129 -474l129 474h377v-244h-102l-201 -600q-62 -184 -133 -292t-181 -171t-282 -90l-65 246q101 33 169 82t97 126l18 50l-227 649h-105zM156 1122v295h305v-295h-305zM594 1122v295h305v-295h-305z" />
<glyph unicode="&#x152;" horiz-adv-x="1669" d="M61 684q0 176 46.5 312t131.5 220.5t198.5 127t252.5 42.5q53 0 114 -10t85 -10h739v-397h-244v123h-245v-261h352v-272h-352v-285h245v129h244v-403h-737q-24 0 -86 -10t-115 -10q-139 0 -253 43.5t-198.5 129t-131 221t-46.5 310.5zM416 684q0 -230 73 -335t201 -105 q60 0 105 20v842q-50 22 -105 22q-129 0 -201.5 -108.5t-72.5 -335.5z" />
<glyph unicode="&#x153;" horiz-adv-x="1693" d="M61 481q0 128 37 225.5t105 157.5t158.5 89.5t201.5 29.5q120 0 191.5 -29t132.5 -84q109 113 299 113q230 0 338 -148t108 -468h-565q7 -64 50 -96.5t114 -32.5q129 0 287 92l100 -211q-40 -28 -67.5 -44.5t-82.5 -42.5t-123.5 -39t-148.5 -13q-109 0 -182 28t-129 84 q-59 -54 -134 -83t-188 -29q-111 0 -201 29.5t-158 89t-105.5 157t-37.5 225.5zM406 481q0 -235 157 -235q158 0 158 235q0 238 -158 238q-157 0 -157 -238zM1067 545h223q0 102 -23 155.5t-83 53.5q-63 0 -87.5 -49t-29.5 -160z" />
<glyph unicode="&#x178;" horiz-adv-x="1118" d="M20 1122v244h533v-244h-80l84 -268l172 512h369v-244h-103l-272 -661v-217h154v-244h-652v244h154v217l-256 661h-103zM188 1427v295h306v-295h-306zM627 1427v295h305v-295h-305z" />
<glyph unicode="&#x2c6;" horiz-adv-x="890" d="M31 1110l166 317h499l164 -317h-362l-52 141l-57 -141h-358z" />
<glyph unicode="&#x2dc;" horiz-adv-x="759" d="M31 1243q3 8 8 21t26 46.5t46 59.5t67.5 47t91.5 21q66 0 129.5 -24.5t92.5 -24.5q35 0 68.5 11.5t49.5 23.5l17 12l102 -148q-3 -7 -8.5 -19.5t-26.5 -44.5t-45 -56t-64.5 -44t-84.5 -20q-61 0 -123 24.5t-98 24.5t-72 -12.5t-54 -24.5l-18 -12z" />
<glyph unicode="&#x2000;" horiz-adv-x="880" />
<glyph unicode="&#x2001;" horiz-adv-x="1761" />
<glyph unicode="&#x2002;" horiz-adv-x="880" />
<glyph unicode="&#x2003;" horiz-adv-x="1761" />
<glyph unicode="&#x2004;" horiz-adv-x="587" />
<glyph unicode="&#x2005;" horiz-adv-x="440" />
<glyph unicode="&#x2006;" horiz-adv-x="293" />
<glyph unicode="&#x2007;" horiz-adv-x="293" />
<glyph unicode="&#x2008;" horiz-adv-x="220" />
<glyph unicode="&#x2009;" horiz-adv-x="352" />
<glyph unicode="&#x200a;" horiz-adv-x="97" />
<glyph unicode="&#x2010;" horiz-adv-x="567" d="M61 446v265h445v-265h-445z" />
<glyph unicode="&#x2011;" horiz-adv-x="567" d="M61 446v265h445v-265h-445z" />
<glyph unicode="&#x2012;" horiz-adv-x="567" d="M61 446v265h445v-265h-445z" />
<glyph unicode="&#x2013;" horiz-adv-x="792" d="M61 436v254h670v-254h-670z" />
<glyph unicode="&#x2014;" horiz-adv-x="997" d="M61 436v254h875v-254h-875z" />
<glyph unicode="&#x2018;" horiz-adv-x="524" d="M94 733v305l80 348l223 -38l-57 -289h90v-326h-336z" />
<glyph unicode="&#x2019;" horiz-adv-x="524" d="M94 1040v326h336v-305l-82 -348l-223 39l59 288h-90z" />
<glyph unicode="&#x201a;" horiz-adv-x="524" d="M94 0v326h336v-306l-82 -348l-223 39l59 289h-90z" />
<glyph unicode="&#x201c;" horiz-adv-x="983" d="M94 733v305l80 348l223 -38l-57 -289h90v-326h-336zM553 733v305l82 348l223 -38l-59 -289h90v-326h-336z" />
<glyph unicode="&#x201d;" horiz-adv-x="983" d="M94 1040v326h336v-305l-82 -348l-223 39l59 288h-90zM553 1040v326h336v-305l-80 -348l-223 39l57 288h-90z" />
<glyph unicode="&#x201e;" horiz-adv-x="983" d="M94 0v326h336v-306l-82 -348l-223 39l59 289h-90zM553 0v326h336v-306l-80 -348l-223 39l57 289h-90z" />
<glyph unicode="&#x2022;" horiz-adv-x="606" d="M94 483v416h418v-416h-418z" />
<glyph unicode="&#x2026;" horiz-adv-x="1499" d="M94 0v326h336v-326h-336zM582 0v326h336v-326h-336zM1069 0v326h336v-326h-336z" />
<glyph unicode="&#x202f;" horiz-adv-x="352" />
<glyph unicode="&#x2039;" horiz-adv-x="641" d="M41 563l332 459l227 -137l-217 -322l217 -321l-227 -138z" />
<glyph unicode="&#x203a;" horiz-adv-x="641" d="M41 242l217 321l-217 322l229 137l330 -459l-330 -459z" />
<glyph unicode="&#x205f;" horiz-adv-x="440" />
<glyph unicode="&#x20ac;" horiz-adv-x="1230" d="M51 395v205h113q0 8 -1 25t-1 26q0 8 1 24t1 23h-113v203h142q30 111 89.5 194.5t137.5 132.5t164 73t180 24q102 0 192 -16.5t130 -31t94 -38.5v-319h-246v110q-66 19 -146 19q-92 0 -147 -38t-94 -110h354v-203h-389q0 -7 -1 -23t-1 -24q0 -9 1 -26t1 -25h389v-205 h-356q56 -135 227 -135q85 0 162 25v108h246v-321q-56 -26 -99.5 -42.5t-136.5 -33t-203 -16.5q-70 0 -134 11t-131 40t-120 74.5t-97.5 119.5t-68.5 170h-139z" />
<glyph unicode="&#x2122;" horiz-adv-x="1884" d="M23 1085v281h661v-281h-174v-518h-315v518h-172zM725 567v799h399l144 -369l145 369h399v-799h-313v326l-117 -326h-227l-115 324v-324h-315z" />
<glyph unicode="&#xe000;" horiz-adv-x="962" d="M0 0v963h963v-963h-963z" />
</font>
</defs>
</svg>
